#TITLE:Bewitched;
#SUBTITLE:;
#ARTIST:이정현;
#TITLETRANSLIT:Bewitched;
#SUBTITLETRANSLIT:;
#ARTISTTRANSLIT:Lee Jung Hyun;
#CREDIT:;
#BANNER:Bewitched-bn.png;
#BACKGROUND:Bewitched-bg.png;
#LYRICSPATH:;
#CDTITLE:pm4cd.png;
#MUSIC:Bewitched.mp3;
#OFFSET:0.060;
#SAMPLESTART:84.998;
#SAMPLELENGTH:20.000;
#SELECTABLE:YES;
#BPMS:0.000=139.800;
#STOPS:;
#BGCHANGES:;
// cache tags:
#FIRSTBEAT:2.250;
#LASTBEAT:462.250;
#SONGFILENAME:Songs/Music V.I.P ^_^/Bewitched/Bewitched.sm;
#HASMUSIC:1;
#HASBANNER:1;
#MUSICLENGTH:204.068;
// end cache tags

//---------------dance-single - ----------------
#NOTES:
     dance-single:
     :
     Hard:
     9:
     0.788,0.821,1.000,0.098,1.000,819.000,282.000,20.000,0.000,7.000:
0000
0000
0000
0000
0000
0000
0000
0000
0000
1100
0000
0001
0000
0110
0000
1000
,
0000
1100
0000
0001
0000
0110
0000
1000
0000
0011
0000
1000
0000
0110
0000
0001
,
0000
0011
0000
1000
0000
0110
0000
0001
0000
1010
0000
0001
0000
0101
0000
0010
,
0000
1010
0000
0001
0000
0101
0000
0010
0000
0101
0000
1000
0000
1010
0000
0010
,
0000
0101
0000
1000
0000
1010
0000
0010
0000
1001
0000
0100
0000
0011
0000
1000
,
0000
1001
0000
0100
0000
0011
0000
1000
0000
0110
0000
0001
0000
1100
0000
0010
,
0000
0110
0000
0001
0000
1100
0000
0010
0000
1100
0000
0010
0000
0011
0000
0100
,
0000
1100
0000
0010
0000
0011
0000
0100
0000
0110
0000
1000
0000
0101
0000
0010
,
0000
0110
0000
1000
0000
0101
0000
0010
0000
1100
0000
0100
0000
0010
0000
0001
,
0000
0010
0000
0100
0000
1000
0000
0100
0000
0011
0000
0010
0000
0100
0000
1000
,
0000
0100
0000
0010
0000
0001
0000
0010
0000
1100
0000
0100
0000
0010
0000
0001
,
0000
0010
0000
0100
0000
1000
0000
0100
0000
0011
0000
0010
0000
0100
0000
1000
,
0000
0100
0000
0010
0000
0001
0000
0010
0000
1100
0000
0100
0000
0010
0000
0001
,
0000
0010
0000
0100
0000
1000
0000
0100
0000
0011
0000
0010
0000
0100
0000
1000
,
0000
0100
0000
0010
0000
0001
0000
0010
0000
1100
0000
0100
0000
0010
0000
0001
,
0000
0010
0000
0100
0000
1000
0000
0100
0000
0011
0000
0010
0000
0100
0000
1000
,
0000
0100
0000
0010
0000
0001
0000
0010
0000
2002
0000
0000
0000
0000
0000
0000
,
0000
0000
0000
0000
0000
3003
0000
0000
0000
1100
0000
0010
0000
0101
0000
0010
,
0000
1010
0000
0100
0000
1001
0000
0010
0000
0011
0000
0110
0000
0011
0000
0110
,
0000
1100
0000
0110
0000
1100
0000
0110
0000
0101
0000
0010
0000
1100
0000
0010
,
0000
1001
0000
0010
0000
0110
0000
1000
0000
1100
0000
0110
0000
1100
0000
0110
,
0000
0011
0000
0110
0000
0011
0000
0110
0000
1100
0000
0010
0000
0101
0000
0010
,
0000
1010
0000
0100
0000
1001
0000
0010
0000
0011
0000
0110
0000
0011
0000
0110
,
0000
1100
0000
0110
0000
1100
0000
0110
0000
0101
0000
0010
0000
1100
0000
0010
,
0000
1001
0000
0010
0000
0110
0000
1000
0000
1100
0000
0110
0000
1100
0000
0110
,
0000
0011
0000
0110
0000
0011
0000
0110
0000
1000
0000
0100
0000
0011
0000
1000
,
0000
0100
0000
0010
0000
1001
0000
0000
0000
0001
0000
0010
0000
1100
0000
0010
,
0000
1000
0000
0100
0000
0011
0000
0000
0000
1000
0000
0010
0000
0101
0000
0010
,
0000
1000
0000
0100
0000
1010
0000
0000
0000
0010
0000
0001
0000
0101
0000
0010
,
0000
1000
0000
0100
0000
1100
0000
0000
0000
1100
0000
0001
0000
1100
0000
0001
,
0000
1100
0000
0001
0000
1100
0000
0001
0000
1000
0000
0100
0000
0010
0000
0001
,
0000
0010
0000
0100
0000
1000
0000
0001
0000
2000
0000
0000
0000
0000
0000
3001
,
0000
1000
0000
0001
0000
1000
0000
0100
0000
0002
0000
0000
0000
0000
0000
1003
,
0000
0001
0000
1000
0000
0001
0000
0010
0000
1100
0000
0010
0000
0001
0000
1000
,
0000
0010
0000
0100
0000
0101
0000
0000
0000
0110
0000
1000
0000
0001
0000
0100
,
0000
0010
0000
1000
0000
0101
0000
0000
0000
1100
0000
0010
0000
1000
0000
0001
,
0000
0100
0000
0001
0000
1010
0000
0000
0000
0011
0000
0100
0000
0010
0000
1000
,
0000
0100
0000
0010
0000
1001
0000
0000
0000
1100
0000
0010
0000
0101
0000
0010
,
0000
0101
0000
0010
0000
1100
0000
0000
0000
0011
0000
0100
0000
1010
0000
0100
,
0000
1010
0000
0100
0000
0011
0000
0000
0000
1100
0000
0000
0000
0101
0000
0000
,
0000
1100
0000
0110
0000
0011
0000
0000
0000
0101
0000
0000
0000
1100
0000
0000
,
0000
0011
0000
0110
0000
1100
0000
0000
0000
1000
0000
0100
0000
0011
0000
0000
,
0000
0001
0000
0010
0000
1100
0000
0000
0000
1000
0000
0001
0000
1100
0000
0000
,
0000
0001
0000
1000
0000
0011
0000
0000
0000
1000
0000
0100
0000
0010
0000
0001
,
0000
0010
0000
0100
0000
1000
0000
0001
0000
2010
0000
0000
0000
0100
0000
0000
,
0000
0010
0000
0000
0000
0001
0000
0000
0000
3010
0000
0100
0000
0001
0000
0100
,
0000
1000
0000
0001
0000
0010
0000
0000
0000
0100
0000
0010
0000
0001
0000
1000
,
0000
0100
0000
0001
0000
0010
0000
0000
0000
0020
0000
0000
0000
0000
0000
0000
,
0000
0030
0000
1000
0000
0001
0000
1000
0000
0002
0000
0000
0000
0000
0000
0000
,
0000
0000
0000
0000
0000
0000
0000
0000
0000
1003
0000
0001
0000
1000
0000
0001
,
0000
1000
0000
0001
0000
1000
0000
0001
0000
1100
0000
0110
0000
0011
0000
1010
,
0000
0110
0000
0000
0000
1001
0000
0000
0000
0001
0000
0010
0000
0100
0000
1000
,
0000
0100
0000
0010
0000
0001
0000
1000
0000
0001
0010
0100
0000
1000
0100
0010
,
0000
0001
0010
0100
0000
1000
0100
0010
0000
1000
0000
0001
0000
1000
0000
0001
,
0000
1000
0000
0001
0000
1000
0000
0001
0000
0010
0000
0100
0000
1000
0000
0001
,
0000
0110
0000
0000
0000
1001
0000
0000
0000
1000
0000
0100
0000
0010
0000
0001
,
0000
1000
0000
0000
0000
0100
0000
0000
0000
0022
0000
0000
0000
0000
0000
0000
,
0000
0000
0000
0000
0000
0000
0000
0000
0000
1133
0000
0100
0000
0010
0000
0001
,
0000
0010
0000
0100
0000
1000
0000
0100
0000
0011
0000
0010
0000
0100
0000
1000
,
0000
0100
0000
0010
0000
0001
0000
0010
0000
1100
0000
0100
0000
0010
0000
0001
,
0000
0010
0000
0100
0000
1000
0000
0100
0000
0011
0000
0010
0000
0100
0000
1000
,
0000
0100
0000
0010
0000
0001
0000
0010
0000
1100
0000
0100
0000
0010
0000
0001
,
0000
0010
0000
0100
0000
1000
0000
0100
0000
0011
0000
0010
0000
0100
0000
1000
,
0000
0100
0000
0010
0000
0001
0000
0010
0000
1100
0000
0100
0000
0010
0000
0001
,
0000
0010
0000
0100
0000
1000
0000
0100
0000
0011
0000
0010
0000
0100
0000
1000
,
0000
0100
0000
0010
0000
0001
0000
0010
0000
2002
0000
0000
0000
0000
0000
0000
,
0000
0000
0000
0000
0000
0000
0000
3003
0000
1100
0000
0010
0000
1001
0000
0001
,
0000
1010
0000
0010
0000
1100
0000
0001
0000
1100
0000
0110
0000
1100
0000
0110
,
0000
0011
0000
0110
0000
0011
0000
0110
0000
1010
0000
0001
0000
0110
0000
0100
,
0000
0011
0000
0010
0000
1010
0000
1000
0000
0011
0000
0110
0000
0011
0000
0110
,
0000
1100
0000
0110
0000
1100
0000
0110
0000
0011
0000
0001
0000
1010
0000
0100
,
0000
0101
0000
0010
0000
1100
0000
0001
0000
0110
0000
1100
0000
0110
0000
1100
,
0000
0110
0000
0011
0000
0110
0000
1100
0000
1001
0000
0010
0000
0110
0000
1000
,
0000
0101
0000
0010
0000
1100
0000
0100
0000
0110
0000
1100
0000
0110
0000
1100
,
0000
0110
0000
0011
0000
0110
0000
0101
0000
0001
0000
0100
0000
1010
0000
0001
,
0000
0010
0000
0100
0000
1100
0000
0000
0000
1000
0000
0010
0000
0101
0000
1000
,
0000
0100
0000
0010
0000
0011
0000
0000
0000
0001
0000
0010
0000
1100
0000
0001
,
0000
0100
0000
1000
0000
0101
0000
0000
0000
0100
0000
1000
0000
0101
0000
0010
,
0000
1000
0000
0100
0000
0101
0000
0000
0000
0011
0000
0100
0000
1010
0000
0100
,
0000
1010
0000
0100
0000
0011
0000
0000
0000
1100
0000
0010
0000
0101
0000
0010
,
0000
0101
0000
0010
0000
1100
0000
0000
0000
0110
0000
0000
0000
0011
0000
0000
,
0000
1010
0000
0110
0000
0101
0000
0000
0000
0011
0000
0000
0000
1100
0000
0000
,
0000
0101
0000
0110
0000
1010
0000
0000
0000
0001
0000
0010
0000
1100
0000
0000
,
0000
1000
0000
0100
0000
0011
0000
0000
0000
0001
0000
0100
0000
1010
0000
0000
,
0000
1000
0000
0010
0000
0101
0000
0000
0000
0001
0000
0100
0000
0010
0000
1000
,
0000
0010
0000
0100
0000
0001
0000
0100
0000
1020
0000
0000
0000
0101
0000
0000
,
0000
0100
0000
0000
0000
1001
0000
0030
0000
0001
0000
0100
0000
1100
0000
0100
,
0000
0001
0000
1000
0000
0110
0000
0000
0000
0100
0000
0010
0000
0101
0000
1000
,
0000
0100
0000
0001
0000
0011
0000
0000
0000
0002
0000
0000
0000
0000
0000
0000
,
0000
0003
0000
1000
0000
0100
0000
0010
0000
2000
0100
0010
0001
0010
0100
0010
,
0001
0000
0000
0010
0000
0100
0000
0010
0000
0001
0000
0010
0000
0100
0000
0010
0000
0001
0000
0010
0000
3100
0000
1000
0000
0100
0000
1000
0000
0000
0000
0000
0000
0001
0000
0000
0000
0000
0000
1000
0000
0000
0000
0000
0000
0001
0000
0000
,
0000
1000
0000
0001
0000
1000
0000
0001
0000
0110
0000
1001
0000
0110
0000
1010
,
0000
0101
0000
0000
0000
1001
0000
0000
0000
1000
0000
0100
0000
0011
0000
0100
,
0000
0010
0000
0001
0000
0101
0000
0010
0000
0100
0010
0001
0000
0010
0100
1000
,
0000
0100
0010
0001
0000
0010
0100
1000
0000
0100
0000
0010
0000
0100
0000
0010
,
0000
0100
0000
0010
0000
0100
0000
0001
0000
0010
0000
0100
0000
1001
0000
0001
,
0000
0110
0000
0000
0000
1001
0000
0000
0000
1000
0000
0100
0000
0011
0000
0001
,
0000
1000
0000
0000
0000
0100
0000
0000
0000
0001
0010
1100
0000
1000
0100
0011
,
0000
0001
0010
1100
0000
1000
0100
0011
0000
1000
0000
0001
0000
1000
0000
0001
,
0000
0100
0000
0010
0000
0100
0000
0010
0000
1000
0000
0100
0000
0010
0000
0001
,
0000
2000
0000
0000
0000
0000
0000
0000
3000
0001
0000
1000
0000
0001
0000
1000
,
0000
0010
0000
0100
0000
0010
0000
0100
0000
0001
0000
0010
0000
0100
0000
1000
,
0000
0002
0000
0000
0000
0000
0000
0000
0003
1100
0000
0001
0000
1100
0000
0001
,
0000
1100
0000
0001
0000
1100
0000
0001
0000
0011
0000
0110
0000
1100
0000
0101
,
0000
2002
0000
0000
0000
0000
0000
3003
0000
1010
0000
0000
0000
0110
0000
0011
,
0000
1010
0000
0100
0000
1001
0000
0000
0000
1100
0000
0011
0000
1100
0000
0000
,
0000
0110
0000
0000
0000
1001
0000
0000
0000
1100
0000
0100
0000
0010
0000
0001
,
0000
0010
0000
0100
0000
1000
0000
0100
0000
0011
0000
0010
0000
0100
0000
1000
,
0000
0100
0000
0010
0000
0001
0000
0010
0000
1100
0000
0100
0000
0010
0000
0001
,
0000
0010
0000
0100
0000
1000
0000
0100
0000
0011
0000
0010
0000
0100
0000
1000
,
0000
0100
0000
0010
0000
0001
0000
0010
0000
1100
0000
0100
0000
0010
0000
0001
,
0000
0010
0000
0100
0000
1000
0000
0100
0000
0011
0000
0010
0000
0100
0000
1000
,
0000
0100
0000
0010
0000
0001
0000
0010
0000
1100
0000
0100
0000
0010
0000
0001
,
0000
0010
0000
0100
0000
1000
0000
0100
0000
1011
0000
0000
0000
1101
0000
0000
,
0000
1011
0000
0000
0000
1101
0000
0000
0000
2002
0000
0000
0000
0000
0000
0000
,
0000
0000
0000
0000
0000
0000
0000
0000
0000
3003
0000
0000
0000
0000
0000
0000
;
